<?xml version="1.0" standalone="no"?>
<!DOCTYPE svg PUBLIC "-//W3C//DTD SVG 1.1//EN" "http://www.w3.org/Graphics/SVG/1.1/DTD/svg11.dtd" >
<svg xmlns="http://www.w3.org/2000/svg">
<metadata>Generated by IcoMoon</metadata>
<defs>
<font id="icomoon" horiz-adv-x="1024">
<font-face units-per-em="1024" ascent="960" descent="-64" />
<missing-glyph horiz-adv-x="1024" />
<glyph unicode="&#x20;" horiz-adv-x="512" d="" />
<glyph unicode="&#xe900;" glyph-name="circuit" d="M307.2 960c28.277 0 51.2-22.923 51.2-51.2v-103.79c25.179 1.391 55.011 1.39 90.045 1.39h12.355v102.4c0 28.277 22.923 51.2 51.2 51.2s51.2-22.923 51.2-51.2v-102.4h12.355c35.036 0.001 64.865 0.001 90.045-1.39v103.79c0 28.277 22.922 51.2 51.2 51.2s51.2-22.923 51.2-51.2v-129.838c31.13-17.973 56.991-43.83 74.962-74.962h129.838c28.278 0 51.2-22.923 51.2-51.2s-22.922-51.2-51.2-51.2h-103.788c1.388-25.179 1.388-55.010 1.388-90.044v-12.356h102.4c28.278 0 51.2-22.923 51.2-51.2s-22.922-51.2-51.2-51.2h-102.4v-12.355c0-35.036 0-64.865-1.388-90.045h103.788c28.278 0 51.2-22.922 51.2-51.2s-22.922-51.2-51.2-51.2h-129.838c-17.971-31.13-43.832-56.991-74.962-74.962v-129.838c0-28.278-22.922-51.2-51.2-51.2s-51.2 22.922-51.2 51.2v103.788c-25.18-1.388-55.009-1.388-90.045-1.388h-12.355v-102.4c0-28.278-22.922-51.2-51.2-51.2s-51.2 22.922-51.2 51.2v102.4h-12.356c-35.034 0-64.866 0-90.044 1.388v-103.788c0-28.278-22.923-51.2-51.2-51.2s-51.2 22.922-51.2 51.2v129.838c-31.132 17.971-56.989 43.832-74.962 74.962h-129.838c-28.277 0-51.2 22.922-51.2 51.2s22.923 51.2 51.2 51.2h103.79c-1.391 25.18-1.39 55.009-1.39 90.045v12.355h-102.4c-28.277 0-51.2 22.922-51.2 51.2s22.923 51.2 51.2 51.2h102.4v12.355c-0.001 35.034-0.001 64.867 1.39 90.045h-103.79c-28.277 0-51.2 22.923-51.2 51.2s22.923 51.2 51.2 51.2h129.838c17.973 31.132 43.83 56.989 74.962 74.962v129.838c0 28.277 22.923 51.2 51.2 51.2zM321.147 696.575c-3.625-1.147-6.616-2.401-9.235-3.736-19.268-9.817-34.933-25.482-44.75-44.75-1.335-2.619-2.589-5.61-3.736-9.235-0.173-0.612-0.357-1.22-0.552-1.822-2.106-7.27-3.814-16.968-4.951-30.876-1.883-23.045-1.923-52.858-1.923-96.715v-122.88c0-43.858 0.040-73.672 1.923-96.717 1.137-13.906 2.845-23.603 4.951-30.874 0.195-0.604 0.379-1.208 0.552-1.823 1.147-3.625 2.401-6.615 3.736-9.236 9.817-19.267 25.482-34.934 44.75-44.749 2.619-1.336 5.61-2.591 9.235-3.738 0.612-0.174 1.22-0.353 1.822-0.553 7.27-2.104 16.968-3.814 30.876-4.946 23.045-1.884 52.858-1.925 96.715-1.925h122.88c43.858 0 73.672 0.041 96.717 1.925 13.906 1.132 23.603 2.842 30.874 4.946 0.604 0.2 1.208 0.379 1.823 0.553 3.625 1.147 6.615 2.401 9.236 3.738 19.267 9.815 34.934 25.482 44.749 44.749 1.336 2.621 2.591 5.612 3.738 9.236 0.174 0.614 0.353 1.219 0.553 1.823 2.104 7.27 3.814 16.968 4.946 30.874 1.884 23.045 1.925 52.859 1.925 96.717v122.88c0 43.857-0.041 73.67-1.925 96.715-1.132 13.908-2.842 23.606-4.946 30.876-0.2 0.603-0.379 1.21-0.553 1.822-1.147 3.625-2.401 6.616-3.738 9.235-9.815 19.268-25.482 34.933-44.749 44.75-2.621 1.335-5.612 2.589-9.236 3.736-0.614 0.173-1.219 0.357-1.823 0.551-7.27 2.106-16.968 3.814-30.874 4.951-23.045 1.883-52.859 1.923-96.717 1.923h-122.88c-43.857 0-73.67-0.040-96.715-1.923-13.908-1.137-23.606-2.845-30.876-4.951-0.603-0.195-1.21-0.379-1.822-0.552zM358.4 550.4c0 28.277 22.923 51.2 51.2 51.2h0.512c28.277 0 51.2-22.923 51.2-51.2s-22.923-51.2-51.2-51.2h-0.512c-28.277 0-51.2 22.923-51.2 51.2zM563.2 550.4c0 28.277 22.922 51.2 51.2 51.2h0.512c28.278 0 51.2-22.923 51.2-51.2s-22.922-51.2-51.2-51.2h-0.512c-28.278 0-51.2 22.923-51.2 51.2zM358.4 345.6c0 28.278 22.923 51.2 51.2 51.2h0.512c28.277 0 51.2-22.922 51.2-51.2s-22.923-51.2-51.2-51.2h-0.512c-28.277 0-51.2 22.922-51.2 51.2zM563.2 345.6c0 28.278 22.922 51.2 51.2 51.2h0.512c28.278 0 51.2-22.922 51.2-51.2s-22.922-51.2-51.2-51.2h-0.512c-28.278 0-51.2 22.922-51.2 51.2z" />
<glyph unicode="&#xe901;" glyph-name="clouds" d="M426.573 789.333c-53.811 0-100.792-34.021-120.643-80.698-5.743-13.504-18.022-23.109-32.512-25.431-62.802-10.065-102.752-61.415-102.752-114.802 0-40.599 20.738-76.925 53.032-98.839 28.211 22.131 61.677 38.805 99.066 48.017 44.429 83.030 132.761 142.614 235.392 143.736-0.687 2.657-1.122 5.403-1.284 8.207-3.84 66.066-60.023 119.809-130.3 119.809zM709.205 617.881c61.773-39.918 106.082-104.362 117.901-179.664 67.277-39.339 111.561-114.876 111.561-195.806 0-122.748-100.945-221.077-224-221.077h-326.4c-142.684 0-260.267 112.969-260.267 254.656 0 46.583 13.685 91.465 38.1 129.98-48.958 37.5-80.767 96.115-80.767 162.433 0 88.82 60.891 169.628 152.189 194.264 36.548 65.434 107.154 112 189.050 112 105.758 0 194.714-75.197 212.582-175.46 30.946-19.35 55.27-48.154 70.050-81.326zM561.109 576c-76.126 0-142.065-47.761-169.882-112.781-5.764-13.474-18.042-23.049-32.515-25.353-40.18-6.404-73.731-24.751-98.426-49.792-29.992-30.413-46.953-70.682-46.953-112.085 0-92.471 77.263-169.323 174.933-169.323h326.4c77.239 0 138.667 61.427 138.667 135.744 0 56.465-34.931 108.399-82.982 129.058-14.839 6.379-24.802 20.587-25.745 36.706-3.558 60.834-38.767 114.027-90.816 143.551-27.14 15.397-58.756 24.274-92.681 24.274z" />
<glyph unicode="&#xe902;" glyph-name="Copy" horiz-adv-x="819" d="M667.418 27.756c-10.573-23.255-27.617-42.967-49.096-56.791s-46.484-21.176-72.028-21.166h-408.259c-17.465-0.005-34.76 3.436-50.896 10.117s-30.798 16.476-43.148 28.826c-12.35 12.349-22.146 27.013-28.828 43.151-6.683 16.133-10.121 33.428-10.119 50.893v595.584c-0.015 25.545 7.33 50.554 21.155 72.034s33.546 38.523 56.803 49.090v-665.713c-0.005-13.926 2.735-27.715 8.061-40.586 5.326-12.867 13.135-24.561 22.982-34.406 9.846-9.851 21.536-17.664 34.402-22.994s26.656-8.074 40.583-8.074l478.387 0.036zM483.328 685.549v260.663h-210.459c-17.471 0-34.771-3.443-50.911-10.132s-30.803-16.493-43.152-28.852c-12.349-12.359-22.142-27.030-28.818-43.175s-10.105-33.448-10.092-50.919v-636.693c0.014-24.356 9.698-47.708 26.924-64.922 17.226-17.219 40.584-26.89 64.937-26.89h449.392c17.464 0 34.755 3.441 50.893 10.127 16.133 6.682 30.797 16.476 43.146 28.826s22.144 27.013 28.826 43.146c6.687 16.138 10.122 33.428 10.122 50.893v387.705h-250.655c-21.263 0.018-41.651 8.479-56.682 23.522-15.029 15.043-23.472 35.437-23.472 56.701zM529.372 946.213l284.785-295.93h-243.533c-10.941 0-21.432 4.346-29.169 12.083s-12.083 18.229-12.083 29.17v254.678z" />
<glyph unicode="&#xe903;" glyph-name="credit-card" d="M213.333 746.667h597.333c70.571 0 128-57.429 128-128v-341.333c0-70.571-57.429-128-128-128h-597.333c-70.571 0-128 57.429-128 128v341.333c0 70.571 57.429 128 128 128zM170.667 618.667v-42.667h682.667v42.667c0 23.509-19.115 42.667-42.667 42.667h-597.333c-23.552 0-42.667-19.157-42.667-42.667zM810.667 234.667c23.552 0 42.667 19.157 42.667 42.667v213.333h-682.667v-213.333c0-23.509 19.115-42.667 42.667-42.667h597.333zM298.667 320c-23.467 0-42.667 19.2-42.667 42.667s19.2 42.667 42.667 42.667h170.667c23.467 0 42.667-19.2 42.667-42.667s-19.2-42.667-42.667-42.667h-170.667zM640 320c-23.467 0-42.667 19.2-42.667 42.667s19.2 42.667 42.667 42.667h85.333c23.467 0 42.667-19.2 42.667-42.667s-19.2-42.667-42.667-42.667h-85.333z" />
<glyph unicode="&#xe904;" glyph-name="edit-fill" d="M827.844 646.969l0.043-0.043c32.64-32.683 33.963-84.651 2.901-115.799l-383.872-383.872c-13.867-13.867-32.256-22.443-51.797-24.235l-177.92-16.171c-1.28-0.128-2.56-0.171-3.883-0.171-11.221 0-22.101 4.437-30.165 12.501-8.96 8.96-13.44 21.419-12.331 34.005l16.171 177.92c1.792 19.499 10.411 37.931 24.32 51.797l383.829 383.831c29.952 30.080 84.267 28.587 115.883-2.944l116.821-116.821zM568.474 619.363l114.987-114.988 83.072 83.201-114.944 114.944-83.115-83.157z" />
<glyph unicode="&#xe905;" glyph-name="Email" horiz-adv-x="1293" d="M1172.211 913.461c65.682 0 121.263-56 121.263-122.182 0-40.727-20.216-76.363-50.526-99.273l-548.212-414.911c-30.316-22.905-68.209-22.905-98.525 0l-548.211 414.911c-30.316 22.91-48 58.546-48 99.273 0 66.182 53.053 122.182 121.263 122.182h1050.947zM548.212 210.917c58.104-43.277 136.418-43.277 194.522 0l550.74 417.452v-529.457c0-91.637-73.265-162.908-161.684-162.908h-970.105c-90.947 0-161.684 71.27-161.684 162.908v529.457l548.212-417.452z" />
<glyph unicode="&#xe906;" glyph-name="ethereum-3-1" d="M741.884 413.376c1.425 7.625-0.845 15.019-4.134 21.807l-198.626 317.78c-11.686 18.688-42.56 18.688-54.246 0l-198.627-317.78c-6.409-11.541-5.862-25.591 1.75-36.471l198.626-258.219c6.063-7.872 15.437-12.497 25.374-12.497s19.311 4.625 25.374 12.497l198.626 258.219c2.581 4.617 5.427 9.293 5.884 14.665zM512 675.62l149.265-238.803-149.265-44.791-149.265 44.791 149.265 238.803zM512 212.493l-112.719 146.534 103.533-31.066c5.999-1.809 12.373-1.809 18.372 0l103.531 31.066-112.717-146.534zM512 896c-247.031 0-448-200.969-448-448s200.969-448 448-448c247.031 0 448 200.969 448 448s-200.969 448-448 448zM512 64c-211.75 0-384 172.25-384 384s172.25 384 384 384c211.75 0 384-172.25 384-384s-172.25-384-384-384z" />
<glyph unicode="&#xe907;" glyph-name="euro-1" d="M512 960c-101.264 0-200.254-30.028-284.452-86.287s-149.822-136.223-188.574-229.779c-38.752-93.556-48.891-196.501-29.136-295.821s68.519-190.549 140.123-262.153c71.604-71.603 162.834-120.367 262.153-140.122s202.265-9.617 295.82 29.133c93.555 38.754 173.521 104.38 229.777 188.578 56.26 84.194 86.289 183.185 86.289 284.45 0 135.791-53.943 266.020-149.961 362.039s-226.249 149.961-362.039 149.961zM512 21.333c-84.386 0-166.878 25.024-237.043 71.906s-124.852 113.519-157.145 191.484c-32.294 77.961-40.743 163.75-24.28 246.515s57.099 158.79 116.77 218.461c59.67 59.67 135.695 100.306 218.46 116.769s168.555 8.014 246.515-24.279c77.965-32.294 144.602-86.981 191.484-157.146s71.906-152.657 71.906-237.043c0-113.161-44.954-221.683-124.966-301.7-80.017-80.013-188.54-124.966-301.7-124.966zM622.933 291.627c-21.495-9.523-44.757-14.396-68.267-14.293-25.566 0.013-50.803 5.773-73.843 16.849-23.040 11.081-43.298 27.191-59.277 47.151h133.12v85.333h-169.173c-1.99 14.153-1.99 28.514 0 42.667h169.173v85.331h-133.12c15.979 19.957 36.237 36.070 59.277 47.147s48.277 16.837 73.843 16.853c23.509 0.099 46.771-4.772 68.267-14.293l39.040-17.067 34.133 78.293-39.040 17.067c-61.444 26.709-130.914 28.265-193.493 4.334-62.577-23.931-113.281-71.441-141.227-132.334h-66.347v-85.331h43.733c0-7.040-1.067-14.080-1.067-21.333s0-14.293 1.067-21.333h-43.733v-85.333h66.347c27.946-60.894 78.65-108.403 141.227-132.335 62.579-23.932 132.049-22.374 193.493 4.335l39.040 17.067-34.773 78.293-38.4-17.067z" />
<glyph unicode="&#xe908;" glyph-name="eye" d="M500.467 746.512c-235.862-5.973-373.035-213.759-409.472-277.29-7.552-13.141-7.552-29.312 0-42.453 26.837-46.805 171.904-277.419 422.059-277.419 3.499 0 6.997 0.043 10.496 0.128 235.819 6.016 373.035 213.76 409.472 277.291 7.509 13.141 7.509 29.312 0 42.453-27.221 47.445-177.579 285.268-432.555 277.29zM521.374 234.769c-183.723-4.267-303.574 152.875-343.339 213.419 43.776 68.48 154.027 208.682 324.608 213.034 182.997 4.651 303.531-152.874 343.296-213.418-43.733-68.48-154.027-208.683-324.565-213.035zM362.666 448c0 82.347 66.987 149.332 149.334 149.332s149.333-66.986 149.333-149.332c0-82.347-66.987-149.333-149.333-149.333s-149.334 66.987-149.334 149.333zM448 448c0-35.285 28.715-64 64-64s64 28.715 64 64c0 35.285-28.715 64-64 64s-64-28.715-64-64z" />
<glyph unicode="&#xe909;" glyph-name="eye-off" d="M140.484 819.52c-16.64-16.683-16.64-43.691 0-60.331l240.256-240.256c-11.819-21.675-18.091-45.781-18.091-70.912 0-82.347 67.029-149.333 149.333-149.333 25.173 0 49.28 6.272 70.955 18.048l240.213-240.213c8.363-8.363 19.243-12.501 30.165-12.501s21.845 4.139 30.165 12.501c16.683 16.64 16.683 43.648 0 60.331l-682.667 682.667c-16.64 16.64-43.648 16.64-60.331 0zM808.73 271.936c64.939 59.221 106.581 123.989 124.288 154.837 7.509 13.141 7.509 29.312 0 42.453-27.221 47.445-177.621 285.269-432.555 277.291-50.56-1.28-96.256-12.203-137.728-28.587l67.413-67.413c22.869 6.059 46.891 10.069 72.491 10.709 183.083 4.651 303.531-152.875 343.296-213.419-19.456-30.464-52.181-75.093-97.408-115.669l60.203-60.203zM661.231 178.069l-67.413 67.413c-22.827-6.059-46.848-10.069-72.448-10.709-183.68-4.267-303.573 152.875-343.339 213.419 19.499 30.464 52.181 75.093 97.408 115.669l-60.203 60.245c-64.939-59.264-106.581-124.032-124.245-154.88-7.552-13.141-7.552-29.312 0-42.453 26.837-46.805 171.904-277.419 422.059-277.419 3.499 0 6.997 0.043 10.496 0.128 50.517 1.28 96.256 12.203 137.685 28.587zM511.983 384.021c-35.285 0-64 28.672-64 64 0 0.55 0.124 1.079 0.252 1.617 0.119 0.499 0.239 1.003 0.26 1.54l66.688-66.688c-0.529-0.021-1.024-0.128-1.523-0.235v0 0c-0.55-0.115-1.097-0.235-1.677-0.235z" />
<glyph unicode="&#xe90a;" glyph-name="Facebook" horiz-adv-x="559" d="M521.984 384h-152.328v-448h-203.108v448h-166.548v184h166.548v142c0 160 97.492 250 245.76 250 71.090 0 146.237-14 146.237-14v-158h-83.274c-81.243 0-105.615-48-105.615-100v-120h180.768l-28.439-184z" />
<glyph unicode="&#xe90b;" glyph-name="file-shield-alt" d="M348.222 874.667c-22.492 0.001-41.895 0.001-57.877-1.304-16.868-1.378-33.645-4.421-49.789-12.647-24.085-12.272-43.666-31.853-55.938-55.938-8.226-16.144-11.269-32.922-12.647-49.789-1.306-15.982-1.305-35.385-1.304-57.877v-498.22c-0.001-22.494-0.001-41.899 1.304-57.877 1.378-16.87 4.421-33.647 12.647-49.792 12.272-24.085 31.853-43.665 55.938-55.936 16.144-8.226 32.922-11.268 49.789-12.646 15.982-1.306 35.385-1.306 57.876-1.306h163.779c23.565 0 42.667 19.102 42.667 42.667s-19.102 42.667-42.667 42.667h-162.133c-24.599 0-40.483 0.034-52.572 1.020-11.591 0.947-15.889 2.556-17.998 3.631-8.028 4.092-14.555 10.615-18.646 18.645-1.075 2.112-2.683 6.409-3.63 17.997-0.988 12.092-1.021 27.972-1.021 52.574v494.933c0 24.599 0.033 40.483 1.021 52.572 0.947 11.591 2.554 15.888 3.63 17.998 4.090 8.028 10.618 14.555 18.646 18.646 2.11 1.075 6.407 2.683 17.998 3.63 12.089 0.988 27.973 1.021 52.572 1.021h162.133v-145.067c0-0.454 0-0.908 0-1.361 0-10.768-0.004-21.255 0.721-30.137 0.798-9.754 2.679-21.262 8.58-32.843 8.179-16.057 21.235-29.111 37.291-37.292 11.58-5.901 23.091-7.781 32.845-8.578 8.879-0.727 19.366-0.723 30.135-0.723h146.428c0-23.565 19.102-42.667 42.667-42.667s42.667 19.102 42.667 42.667v42.667c0 11.316-4.497 22.168-12.497 30.17l-256 256c-8 8.002-18.854 12.497-30.17 12.497h-206.444zM597.333 728.993l110.327-110.327h-84.727c-12.651 0-19.575 0.033-24.55 0.439-0.196 0.016-0.384 0.032-0.559 0.049-0.017 0.177-0.034 0.364-0.051 0.562-0.405 4.975-0.439 11.897-0.439 24.549v84.727zM341.333 576c0 23.564 19.103 42.667 42.667 42.667h42.667c23.565 0 42.667-19.103 42.667-42.667s-19.102-42.667-42.667-42.667h-42.667c-23.564 0-42.667 19.102-42.667 42.667zM341.333 405.333c0 23.565 19.103 42.667 42.667 42.667h128c23.565 0 42.667-19.102 42.667-42.667s-19.102-42.667-42.667-42.667h-128c-23.564 0-42.667 19.102-42.667 42.667zM768 405.333c11.767 0 23.014-4.864 31.078-13.436 23.253-24.721 52.297-38.191 82.701-38.191 1.020 0 2.351-0.013 3.524-0.026l3.93-0.038c1.331-0.013 2.509-0.017 3.447-0.009 0.734 0.004 1.037 0.013 1.037 0.013s-0.102-0.004-0.282-0.017c11.738 0.708 23.249-3.46 31.812-11.524s13.419-19.302 13.419-31.066v-50.684c0-109.376-63.206-208.115-158.191-237.158-8.132-2.487-16.819-2.487-24.951 0-94.98 29.043-158.191 127.782-158.191 237.158l0.009 50.671c0 11.759 4.855 23.019 13.419 31.083 8.495 7.996 19.891 12.16 31.531 11.537 0.043 0 0.354-0.009 1.028-0.013 0.934-0.009 2.112-0.004 3.443 0.009l3.93 0.038c1.169 0.013 2.505 0.030 3.529 0.030 30.4 0 59.447 13.466 82.697 38.187 8.064 8.576 19.311 13.436 31.083 13.436zM682.667 270.528v-10.172c0-73.156 38.524-129.783 85.333-150.848 46.81 21.065 85.333 77.692 85.333 150.848v10.172c-31.39 4.787-60.292 17.361-85.333 35.503-25.041-18.142-53.943-30.711-85.333-35.503zM341.333 234.667c0 23.565 19.103 42.667 42.667 42.667h85.333c23.565 0 42.667-19.102 42.667-42.667s-19.102-42.667-42.667-42.667h-85.333c-23.564 0-42.667 19.102-42.667 42.667z" />
<glyph unicode="&#xe90c;" glyph-name="file-text" d="M609.975 860.672l232.277-256c7.125-7.851 11.093-18.048 11.093-28.672v-448c0-58.795-48.939-106.667-109.056-106.667h-464.597c-60.117 0-109.013 47.872-109.013 106.667v640c0 58.795 48.896 106.667 109.013 106.667h298.667c12.075 0 23.509-5.077 31.616-13.995zM279.693 106.667h464.597c13.099 0 23.723 9.557 23.723 21.333v405.333h-140.203c-63.872 0-115.797 54.528-115.797 121.6v134.4h-232.32c-13.056 0-23.68-9.557-23.68-21.333v-640c0-11.776 10.624-21.333 23.68-21.333zM384 362.667h128c23.552 0 42.667 19.115 42.667 42.667s-19.115 42.667-42.667 42.667h-128c-23.552 0-42.667-19.115-42.667-42.667s19.115-42.667 42.667-42.667zM384 277.333c-23.552 0-42.667-19.115-42.667-42.667s19.115-42.667 42.667-42.667h256c23.595 0 42.667 19.115 42.667 42.667s-19.072 42.667-42.667 42.667h-256zM597.346 747.605l116.992-128.939h-86.528c-16.811 0-30.464 16.256-30.464 36.267v92.672z" />
<glyph unicode="&#xe90d;" glyph-name="flash" d="M459.482-18.761c4.821-1.749 9.728-2.56 14.592-2.56 13.909 0 27.392 6.827 35.456 18.944l336.597 503.467c8.747 13.099 9.6 29.909 2.176 43.817-7.424 13.867-21.888 22.571-37.632 22.571h-251.136l32.811 302.592c2.133 19.499-9.387 37.973-27.861 44.672-18.475 6.741-39.125 0-50.005-16.384l-336.597-503.422c-8.747-13.099-9.6-29.952-2.176-43.861 7.424-13.867 21.888-22.528 37.632-22.528h251.136l-32.811-302.635c-2.133-19.499 9.387-37.931 27.819-44.672zM512.004 413.879h-218.837l195.584 292.521-19.157-177.022c-1.323-12.032 2.56-24.064 10.667-33.067 8.064-9.003 19.627-14.165 31.744-14.165h218.837l-195.584-292.565 19.157 177.067c1.28 12.032-2.603 24.064-10.667 33.067s-19.627 14.165-31.744 14.165z" />
<glyph unicode="&#xe90e;" glyph-name="globe" d="M513.195 874.581c234.709-0.683 425.472-191.744 425.472-426.581s-190.763-425.941-425.472-426.581c-0.085 0-0.213-0.085-0.341-0.085-0.043 0-0.073 0.009-0.107 0.021-0.030 0.009-0.064 0.021-0.107 0.021-0.077 0-0.162-0.009-0.256-0.017-0.115-0.013-0.243-0.026-0.384-0.026-235.264 0-426.667 191.403-426.667 426.667 0 235.221 191.403 426.667 426.667 426.667 0.111 0 0.239-0.012 0.354-0.023 0.107-0.010 0.205-0.020 0.286-0.020 0.111 0 0.213-0.012 0.307-0.023 0.085-0.010 0.166-0.020 0.247-0.020zM387.371 490.667c13.056 139.605 84.48 236.8 125.739 281.728 42.667-45.696 112.981-141.995 125.141-281.728h-250.88zM301.44 490.667c9.387 122.155 56.363 216.448 101.248 280.363-121.685-41.301-212.608-149.291-229.077-280.363h127.829zM173.611 405.333h127.659c8.789-122.112 54.741-215.723 100.096-279.936-121.045 41.685-211.328 149.333-227.755 279.936zM623.659 125.781c44.757 63.915 91.307 157.909 100.608 279.552h126.080c-16.341-130.219-106.197-237.653-226.688-279.552zM638.379 405.333h-250.965c11.904-139.605 80.427-234.581 125.099-281.941 41.216 44.928 112.811 142.123 125.867 281.941zM850.347 490.667h-125.952c-8.747 121.557-54.187 214.869-99.328 278.997 119.808-42.24 209.024-149.291 225.28-278.997z" />
<glyph unicode="&#xe90f;" glyph-name="globe-2-fill" d="M85.329 448c0 235.221 191.403 426.667 426.667 426.667s426.667-191.445 426.667-426.667c0-235.264-191.403-426.667-426.667-426.667s-426.667 191.403-426.667 426.667zM298.15 274.219c-29.909 0-59.307 4.779-86.443 11.648 57.771-106.624 170.709-179.2 300.288-179.2 46.976 0 91.733 9.515 132.523 26.795-0.043 11.904-7.253 24.064-21.931 46.123l-0.567 0.858c-5.406 8.171-10.867 16.427-15.774 24.998-42.112 73.259-10.88 125.696 16.725 171.904l4.224 7.168c10.667 17.963 11.392 37.632 12.245 62.507 0.597 17.536 1.323 37.376 5.931 58.453 17.408 79.701 103.936 99.627 164.821 108.117-32.64 58.667-82.133 106.581-141.867 137.472-12.629-30.507-33.024-58.155-60.459-79.616-12.843-10.027-26.155-18.005-39.040-25.685l-0.23-0.138c-20.937-12.528-39.010-23.343-47.514-38.902-15.872-29.141-15.872-61.995-15.872-100.011 0-58.88 0-132.139-73.216-189.397-40.704-31.872-87.765-43.093-133.845-43.093z" />
<glyph unicode="&#xe910;" glyph-name="Group" d="M984 488h-432v432c0 22.092-17.907 40-40 40s-40-17.908-40-40v-432h-432c-22.092 0-40-17.907-40-40s17.908-40 40-40h432v-432c0-22.093 17.907-40 40-40s40 17.907 40 40v432h432c22.093 0 40 17.907 40 40s-17.907 40-40 40z" />
<glyph unicode="&#xe911;" glyph-name="Grouphhh" d="M995.499 279.565c18.436 52.774 28.497 109.449 28.497 168.439 0 58.987-10.061 115.663-28.497 168.438-0.439 1.574-0.986 3.117-1.63 4.619-71.113 197.405-260.262 338.939-481.869 338.939-221.605 0-410.756-141.533-481.865-338.939-0.646-1.492-1.184-3.034-1.629-4.619-18.437-52.775-28.496-109.451-28.496-168.438 0-58.991 10.060-115.665 28.496-168.439 0.45-1.587 0.984-3.132 1.629-4.621 71.114-197.41 260.26-338.94 481.865-338.94s410.756 141.534 481.869 338.94c0.644 1.502 1.19 3.046 1.63 4.621zM512 9.395c-19.499 0-50.935 35.285-77.21 114.121-12.682 38.046-22.835 81.779-30.233 129.353h214.89c-7.398-47.573-17.553-91.302-30.229-129.353-26.283-78.835-57.719-114.121-77.218-114.121zM395.652 326.259c-3.528 39.134-5.392 79.962-5.392 121.745 0 41.779 1.864 82.607 5.392 121.74h232.695c3.524-39.133 5.389-79.96 5.389-121.74 0-41.783-1.865-82.611-5.389-121.745h-232.695zM73.398 447.996c0 42.227 6.013 83.076 17.204 121.743h231.436c-3.43-39.942-5.172-80.877-5.172-121.743s1.737-81.801 5.172-121.741h-231.436c-11.438 39.569-17.23 80.555-17.204 121.741zM512 886.606c19.499 0 50.944-35.288 77.218-114.123 12.676-38.043 22.835-81.776 30.229-129.345h-214.895c7.398 47.574 17.551 91.302 30.234 129.345 26.278 78.835 57.715 114.123 77.214 114.123zM701.961 569.739h231.437c11.191-38.667 17.203-79.516 17.203-121.743 0-42.223-6.012-83.072-17.203-121.741h-231.437c3.43 39.94 5.171 80.875 5.171 121.741s-1.741 81.801-5.171 121.743zM904.721 643.133h-211.183c-13.052 90.016-35.447 170.773-66.867 228.227 121.813-33.023 222.729-117.333 278.050-228.227zM397.326 871.364c-31.418-57.453-53.813-138.211-66.867-228.231h-211.18c55.325 110.894 156.237 195.204 278.047 228.231zM119.279 252.868h211.18c13.054-90.018 35.45-170.773 66.867-228.233-121.81 33.028-222.722 117.333-278.047 228.233zM626.671 24.636c31.42 57.455 53.815 138.21 66.867 228.233h211.183c-55.322-110.899-156.237-195.204-278.050-228.233z" />
<glyph unicode="&#xe912;" glyph-name="headphones" d="M268.452 687.151c-60.482-61.587-97.786-146.013-97.786-239.151 0-13.696 0.805-27.196 2.368-40.448 3.341 1.835 6.765 3.575 10.269 5.21 64.067 29.875 140.222 2.159 170.097-61.909l72.131-154.684c29.876-64.068 2.156-140.224-61.91-170.099-85.423-39.834-186.962-2.876-226.795 82.547l-36.069 77.35c-22.431 48.102-20.477 101.303 0.657 145.643-10.482 37.039-16.080 76.092-16.080 116.39 0 235.642 191.025 426.667 426.667 426.667 235.639 0 426.667-191.025 426.667-426.667 0-42.121-6.118-82.88-17.532-121.404 18.953-43.294 19.955-94.327-1.634-140.629l-36.070-77.35c-39.834-85.423-141.372-122.381-226.795-82.547-64.068 29.875-91.785 106.031-61.909 170.099l72.132 154.684c29.871 64.068 106.027 91.785 170.095 61.909 4.74-2.21 9.331-4.612 13.773-7.194 1.719 13.892 2.607 28.053 2.607 42.432 0 93.149-37.312 177.584-97.809 239.173l-38.733-51.469c-13.094-17.396-37.184-22.144-55.898-11.017-35.93 21.364-100.288 36.649-148.821 36.649-49.963 0-112.378-14.461-148.473-36.442-18.72-11.4-43.034-6.761-56.242 10.731l-38.906 51.526zM335.37 740.138l18.697-24.762c49.2 20.679 109.318 31.293 158.005 31.293 48.017 0 108.749-11.279 157.726-31.497l18.803 24.984c-51.524 31.211-111.966 49.178-176.602 49.178-64.649 0-125.101-17.973-176.63-49.195zM276.061 314.786c-9.958 21.355-35.341 30.596-56.695 20.638-15.346-7.155-27.473-18.206-35.882-31.424-15.189-23.876-18.158-54.588-5.39-81.971l36.069-77.35c19.916-42.709 70.684-61.184 113.393-41.271 21.354 9.958 30.593 35.341 20.635 56.695l-72.131 154.684zM800.892 335.424c-21.355 9.958-46.737 0.717-56.695-20.638l-72.132-154.684c-9.958-21.355-0.717-46.737 20.638-56.695 42.709-19.913 93.474-1.438 113.391 41.271l36.070 77.35c12.305 26.389 9.997 55.855-3.785 79.343-8.439 14.391-21.15 26.432-37.487 34.052z" />
<glyph unicode="&#xe913;" glyph-name="Info" d="M512-64c135.791 0 266.018 53.943 362.039 149.961 96.017 96.021 149.961 226.249 149.961 362.039s-53.943 266.020-149.961 362.039c-96.021 96.019-226.249 149.961-362.039 149.961s-266.020-53.943-362.039-149.961c-96.019-96.019-149.961-226.248-149.961-362.039s53.943-266.018 149.961-362.039c96.019-96.017 226.248-149.961 362.039-149.961zM432 288h48v128h-48c-26.6 0-48 21.402-48 48s21.4 48 48 48h96c26.598 0 48-21.402 48-48v-176h16c26.598 0 48-21.402 48-48s-21.402-48-48-48h-160c-26.6 0-48 21.402-48 48s21.4 48 48 48zM512 704c16.973 0 33.254-6.743 45.257-18.745s18.743-28.281 18.743-45.255c0-16.974-6.741-33.252-18.743-45.255s-28.284-18.745-45.257-18.745c-16.973 0-33.254 6.743-45.257 18.745s-18.743 28.281-18.743 45.255c0 16.974 6.741 33.253 18.743 45.255s28.284 18.745 45.257 18.745z" />
<glyph unicode="&#xe914;" glyph-name="Location-Pin" horiz-adv-x="709" d="M310.154 18.822c-96 122.352-310.154 414.117-310.154 579.766 0 199.53 156.923 361.412 354.462 361.412 195.694 0 354.462-161.882 354.462-361.412 0-165.649-216.001-457.414-312.001-579.766-22.153-28.235-64.614-28.235-86.768 0zM354.462 478.117c64.614 0 118.154 52.704 118.154 120.471 0 65.882-53.539 120.47-118.154 120.47-66.462 0-118.154-54.588-118.154-120.47 0-67.766 51.692-120.471 118.154-120.471z" />
<glyph unicode="&#xe915;" glyph-name="Lock-2" horiz-adv-x="853" d="M696 584h-72.073v164.46c0 116.644-96.9 211.54-216.001 211.54s-216-94.896-216-211.54v-164.46h-71.926c-66.168 0-120-53.833-120-120v-408c0-66.167 53.832-120 120-120h576c66.167 0 120 53.833 120 120v408c0 66.167-53.833 120-120 120zM271.926 748.46c0 72.532 61.010 131.54 136 131.54 74.988 0 136.001-59.008 136.001-131.54v-164.46h-272.001v164.46zM736 56c0-22.054-17.946-40-40-40h-576c-22.056 0-40 17.946-40 40v408c0 22.054 17.944 40 40 40h576c22.054 0 40-17.946 40-40v-408zM408 388.002c-40.87 0-74-33.131-74-74.001 0-26.099 13.52-49.020 33.926-62.195v-87.804c0-22.093 17.908-40.004 40-40.004 22.090 0 40.001 17.911 40.001 40.004v87.71c20.489 13.158 34.074 36.13 34.074 62.289 0 40.87-33.131 74.001-74.001 74.001z" />
<glyph unicode="&#xe916;" glyph-name="Lock" horiz-adv-x="853" d="M696 584h-72.073v164.46c0 116.644-96.9 211.54-216.001 211.54s-216-94.896-216-211.54v-164.46h-71.926c-66.168 0-120-53.833-120-120v-408c0-66.167 53.832-120 120-120h576c66.167 0 120 53.833 120 120v408c0 66.167-53.833 120-120 120zM271.926 748.46c0 72.532 61.010 131.54 136 131.54 74.988 0 136.001-59.008 136.001-131.54v-164.46h-272.001v164.46zM736 56c0-22.054-17.946-40-40-40h-576c-22.056 0-40 17.946-40 40v408c0 22.054 17.944 40 40 40h576c22.054 0 40-17.946 40-40v-408zM408 388.002c-40.87 0-74-33.131-74-74.001 0-26.099 13.52-49.020 33.926-62.195v-87.804c0-22.093 17.908-40.004 40-40.004 22.090 0 40.001 17.911 40.001 40.004v87.71c20.489 13.158 34.074 36.13 34.074 62.289 0 40.87-33.131 74.001-74.001 74.001z" />
<glyph unicode="&#xe917;" glyph-name="Lock02" horiz-adv-x="811" d="M152 554.667v152c0 67.188 26.691 131.625 74.199 179.134s111.946 74.199 179.134 74.199c67.187 0 131.622-26.69 179.132-74.199s74.202-111.946 74.202-179.134v-152c40.311 0 78.976-16.014 107.482-44.518 28.506-28.506 44.518-67.17 44.518-107.482v-304c0-40.311-16.013-78.976-44.518-107.482s-67.17-44.518-107.482-44.518h-506.667c-40.313 0-78.975 16.013-107.48 44.518s-44.52 67.17-44.52 107.482v304c0 40.311 16.014 78.976 44.52 107.482 28.506 28.504 67.168 44.518 107.48 44.518zM557.333 554.667v152c0 40.313-16.013 78.975-44.518 107.48s-67.17 44.52-107.482 44.52c-40.313 0-78.975-16.014-107.48-44.52s-44.52-67.168-44.52-107.48v-152h304zM405.333 352c13.437 0 26.325-5.338 35.827-14.839s14.839-22.391 14.839-35.827v-101.333c0-13.436-5.338-26.325-14.839-35.827s-22.39-14.839-35.827-14.839c-13.437 0-26.325 5.338-35.827 14.839s-14.84 22.391-14.84 35.827v101.333c0 13.436 5.338 26.325 14.84 35.827s22.389 14.839 35.827 14.839z" />
<glyph unicode="&#xe918;" glyph-name="lock-fill" d="M682.667 618.667h42.667c70.571 0 128-57.429 128-128v-341.333c0-70.571-57.429-128-128-128h-426.667c-70.571 0-128 57.429-128 128v341.333c0 70.571 57.429 128 128 128h42.667v80.597c0 96.683 76.544 175.403 170.667 175.403s170.667-78.72 170.667-175.403v-80.597zM426.667 699.264c0 49.664 38.272 90.069 85.333 90.069s85.333-40.405 85.333-90.069v-80.597h-170.667v80.597zM384 320c0-70.571 57.429-128 128-128s128 57.429 128 128c0 70.571-57.429 128-128 128s-128-57.429-128-128zM469.333 320c0 23.552 19.115 42.667 42.667 42.667s42.667-19.115 42.667-42.667c0-23.552-19.115-42.667-42.667-42.667s-42.667 19.115-42.667 42.667z" />
<glyph unicode="&#xe919;" glyph-name="Mask-group-1" d="M853.333 874.667h-682.667v-853.333h682.667v853.333z" />
<glyph unicode="&#xe91a;" glyph-name="Minus" horiz-adv-x="12288" d="M12288 448c0-282.778-343.859-512-768-512h-10752c-424.151 0-768 229.222-768 512s343.849 512 768 512h10752c424.141 0 768-229.222 768-512z" />
<glyph unicode="&#xe91b;" glyph-name="Money" d="M295.858 746.667c0.933 0 1.869 0 2.809 0h429.474c37.824 0.002 70.413 0.004 96.512-3.505 27.968-3.76 54.78-12.24 76.523-33.985 21.747-21.746 30.225-48.556 33.988-76.524 3.507-26.098 3.507-58.688 3.503-96.512v-176.282c0.004-37.824 0.004-70.413-3.503-96.512-3.763-27.968-12.241-54.78-33.988-76.523-21.743-21.747-48.555-30.225-76.523-33.988-26.099-3.507-58.688-3.507-96.512-3.503h-432.283c-37.824-0.004-70.413-0.004-96.51 3.503-27.969 3.763-54.778 12.241-76.524 33.988-21.745 21.743-30.225 48.555-33.986 76.523-3.508 26.099-3.507 58.688-3.505 96.512v173.474c0 0.939 0 1.876 0 2.809-0.002 37.823-0.004 70.413 3.505 96.51 3.76 27.968 12.24 54.778 33.986 76.524s48.555 30.225 76.524 33.985c26.097 3.509 58.687 3.507 96.51 3.505zM210.718 658.589c-18.506-2.488-24.306-6.505-27.555-9.753s-7.265-9.048-9.753-27.555c-2.653-19.733-2.744-46.516-2.744-87.948v-170.667c0-41.434 0.090-68.215 2.744-87.949 2.488-18.505 6.505-24.307 9.753-27.554s9.049-7.266 27.555-9.754c19.734-2.654 46.516-2.743 87.949-2.743h426.667c41.434 0 68.215 0.090 87.949 2.743 18.505 2.487 24.307 6.507 27.554 9.754s7.266 9.050 9.754 27.554c2.654 19.733 2.743 46.515 2.743 87.949v170.667c0 41.432-0.090 68.215-2.743 87.948-2.487 18.506-6.507 24.307-9.754 27.555s-9.050 7.265-27.554 9.753c-19.733 2.653-46.515 2.744-87.949 2.744h-426.667c-41.433 0-68.215-0.091-87.949-2.744zM213.333 576c0 23.564 19.103 42.667 42.667 42.667h85.333c23.564 0 42.667-19.103 42.667-42.667s-19.103-42.667-42.667-42.667h-85.333c-23.564 0-42.667 19.103-42.667 42.667zM640 320c0 23.565 19.102 42.667 42.667 42.667h85.333c23.565 0 42.667-19.102 42.667-42.667s-19.102-42.667-42.667-42.667h-85.333c-23.565 0-42.667 19.102-42.667 42.667zM512 405.333c-23.565 0-42.667 19.102-42.667 42.667s19.102 42.667 42.667 42.667c23.565 0 42.667-19.102 42.667-42.667s-19.102-42.667-42.667-42.667zM512 320c70.694 0 128 57.306 128 128s-57.306 128-128 128c-70.694 0-128-57.306-128-128s57.306-128 128-128z" />
<glyph unicode="&#xe91c;" glyph-name="money-bill" d="M264.49 746.667h494.976c5.658 0 11.098 0 16.205-0.016 34.466-0.107 66.18-0.216 93.107-13.935 24.085-12.272 43.665-31.853 55.936-55.938 13.722-26.926 13.828-58.64 13.935-93.107 0.017-5.092 0.017-10.479 0.017-16.118v-239.019c0-1.839 0-3.686 0.004-5.521 0.004-3.665 0.004-7.287-0.004-10.701-0.107-34.487-0.239-66.176-13.952-93.090-12.271-24.085-31.851-43.665-55.936-55.936-26.927-13.722-58.641-13.828-93.107-13.935-5.107-0.017-10.509-0.017-16.162-0.017h-495.019c-5.655 0-11.056 0-16.161 0.017-34.467 0.107-66.181 0.213-93.107 13.935-24.085 12.271-43.666 31.851-55.938 55.936-13.719 26.927-13.828 58.641-13.935 93.107-0.016 5.107-0.016 10.509-0.016 16.162v239.019c0 5.655 0 11.056 0.016 16.161 0.107 34.467 0.216 66.181 13.935 93.107 12.272 24.085 31.853 43.666 55.938 55.938 26.926 13.719 58.64 13.828 93.107 13.935 5.105 0.016 10.506 0.016 16.161 0.016zM318.226 661.333c1.166-6.938 1.774-14.066 1.774-21.333 0-70.692-57.308-128-128-128-7.267 0-14.395 0.606-21.333 1.775v-131.55c6.938 1.169 14.066 1.775 21.333 1.775 70.692 0 128-57.306 128-128 0-7.266-0.608-14.396-1.774-21.333h387.549c-1.169 6.938-1.775 14.067-1.775 21.333 0 70.694 57.306 128 128 128 7.266 0 14.396-0.606 21.333-1.775v131.55c-6.938-1.169-14.067-1.775-21.333-1.775-70.694 0-128 57.308-128 128 0 7.267 0.606 14.395 1.775 21.333h-387.549zM794.88 661.073c-3.541-6.222-5.547-13.404-5.547-21.073 0-23.564 19.102-42.667 42.667-42.667 7.671 0 14.852 2.004 21.073 5.548-0.597 24.013-2.219 30.896-4.39 35.155-4.092 8.028-10.615 14.555-18.645 18.646-4.258 2.17-11.14 3.792-35.157 4.39zM853.086 293.111c-6.221 3.55-13.41 5.555-21.086 5.555-23.565 0-42.667-19.102-42.667-42.667 0-7.671 2.005-14.852 5.547-21.073 24.017 0.597 30.899 2.219 35.157 4.39 8.030 4.092 14.554 10.615 18.645 18.645 2.172 4.262 3.802 11.162 4.403 35.149zM229.118 234.927c3.544 6.221 5.548 13.402 5.548 21.073 0 23.565-19.102 42.667-42.667 42.667-7.67 0-14.852-2.005-21.073-5.547 0.598-24.017 2.22-30.899 4.39-35.157 4.091-8.030 10.618-14.554 18.646-18.645 4.259-2.172 11.142-3.793 35.155-4.39zM170.927 602.882c6.222-3.544 13.404-5.548 21.073-5.548 23.564 0 42.667 19.103 42.667 42.667 0 7.67-2.004 14.852-5.548 21.073-24.014-0.598-30.896-2.22-35.155-4.39-8.028-4.091-14.555-10.618-18.646-18.646-2.17-4.259-3.792-11.142-4.39-35.155zM512 490.667c-23.565 0-42.667-19.102-42.667-42.667s19.102-42.667 42.667-42.667c23.565 0 42.667 19.102 42.667 42.667s-19.102 42.667-42.667 42.667zM384 448c0 70.694 57.306 128 128 128s128-57.306 128-128c0-70.694-57.306-128-128-128s-128 57.306-128 128z" />
<glyph unicode="&#xe91d;" glyph-name="monitor" d="M213.333 832h597.333c70.571 0 128-57.429 128-128v-341.333c0-70.571-57.429-128-128-128h-256v-85.333h170.667c23.467 0 42.667-19.2 42.667-42.667s-19.2-42.667-42.667-42.667h-426.667c-23.467 0-42.667 19.2-42.667 42.667s19.2 42.667 42.667 42.667h170.667v85.333h-256c-70.571 0-128 57.429-128 128v341.333c0 70.571 57.429 128 128 128zM810.667 320c23.552 0 42.667 19.157 42.667 42.667v341.333c0 23.509-19.115 42.667-42.667 42.667h-597.333c-23.552 0-42.667-19.157-42.667-42.667v-341.333c0-23.509 19.115-42.667 42.667-42.667h597.333z" />
<glyph unicode="&#xe91e;" glyph-name="navigation-2-fill" d="M583.125 21.338c-0.896 0-1.749 0.043-2.603 0.085-19.285 1.152-35.371 15.147-39.211 34.091l-65.621 322.859c-3.413 16.811-16.512 29.909-33.323 33.323l-322.858 65.664c-18.944 3.797-32.939 19.883-34.091 39.168-1.152 19.328 10.752 36.992 29.099 43.050l682.666 227.541c15.317 5.205 32.213 1.195 43.648-10.283 11.435-11.435 15.403-28.331 10.325-43.648l-227.584-682.666c-5.803-17.536-22.187-29.184-40.448-29.184z" />
<glyph unicode="&#xe91f;" glyph-name="person-fill" d="M682.667 661.333c0-94.123-76.544-170.667-170.667-170.667s-170.667 76.544-170.667 170.667c0 94.123 76.544 170.667 170.667 170.667s170.667-76.544 170.667-170.667zM810.667 106.667c0-23.552-19.072-42.667-42.667-42.667h-512c-23.595 0-42.667 19.115-42.667 42.667 0 164.693 134.016 298.667 298.667 298.667s298.667-133.973 298.667-298.667z" />
<glyph unicode="&#xe920;" glyph-name="Phone" d="M953.869 186.398l-44.804-188.54c-5.598-27.998-28.002-46.66-55.996-46.66-470.402 1.865-853.069 384.529-853.069 854.93 0 28 16.8 50.401 44.8 56l188.533 44.8c26.133 5.6 54.133-9.333 65.333-33.6l87.734-203.467c9.333-24.267 3.732-52.266-16.8-67.2l-100.8-82.132c63.467-128.802 168-233.335 298.667-296.802l82.133 100.8c14.933 18.667 42.931 26.133 67.2 16.802l203.469-87.735c24.26-13.069 39.198-41.062 33.6-67.196z" />
<glyph unicode="&#xe921;" glyph-name="phone-fill" d="M742.396 21.333c-362.325 0-657.067 294.741-657.067 657.067 0 108.245 88.064 196.267 196.267 196.267 11.093 0 22.059-0.939 32.683-2.773 10.368-1.664 20.821-4.309 30.933-7.808 13.909-4.821 24.32-16.469 27.605-30.805l58.453-254.464c3.2-13.995-0.853-28.672-10.795-39.083-5.845-6.059-5.973-6.187-58.88-33.877 42.837-92.757 117.291-166.955 208.213-208.341 27.691 52.949 27.861 53.12 33.92 58.923 10.453 9.984 25.173 13.867 39.125 10.795l254.464-58.411c14.293-3.285 25.941-13.696 30.763-27.563 3.499-10.069 6.101-20.48 7.851-31.189 1.792-10.539 2.731-21.461 2.731-32.469 0-108.245-88.021-196.267-196.267-196.267z" />
<glyph unicode="&#xe922;" glyph-name="pin-fill" d="M170.667 536.619c0-233.557 300.757-494.037 313.557-505.003 8.021-6.869 17.877-10.283 27.776-10.283s19.755 3.413 27.776 10.283c12.8 10.965 313.557 271.445 313.557 505.003 0 186.411-153.131 338.048-341.333 338.048s-341.333-151.637-341.333-338.048zM512 405.333c-82.347 0-149.333 66.987-149.333 149.333s66.987 149.333 149.333 149.333c82.347 0 149.333-66.987 149.333-149.333s-66.987-149.333-149.333-149.333zM512 618.667c-35.285 0-64-28.715-64-64s28.715-64 64-64c35.285 0 64 28.715 64 64s-28.715 64-64 64z" />
<glyph unicode="&#xe923;" glyph-name="pinterest-p-1" d="M544 946c250.667 0 480-130 480-328 0-186-128-394-410.667-394-69.333 0-152 25.997-186.667 72-58.667-179.998-56-208-189.333-345.997-13.333-4.006-10.667-4.006-18.667 3.994-5.333 38.003-10.667 74.005-10.667 112 0 122.005 74.667 300.002 112 418.005-21.333 32-26.667 67.998-26.667 101.998 0 160 250.667 184 250.667 52 0-78-72-152.001-72-227.999 0-50.001 58.667-85.999 125.333-85.999 184 0 240 197.999 240 303.998 0 142-133.333 220-317.333 220-210.667 0-373.333-114-373.333-274 0-78 64-118 64-136.001 0-16-16-69.999-42.667-69.999-64 0-168 80-168 220 0 222 269.333 358 544 358z" />
<glyph unicode="&#xe924;" glyph-name="twitter-1" d="M918.003 685.717c0-11.429 0-20.571 0-32 0-317.713-210.001-681.143-596.003-681.143-120 0-230 38.852-322 107.435 16-2.291 32-4.582 50-4.582 98 0 188 38.861 260 102.861-92 2.291-170 70.861-196 166.861 14-2.287 26-4.574 40-4.574 18 0 38 4.574 54 9.143-96 22.857-168 118.857-168 235.429v2.286c28-18.286 62-27.429 96-29.714-58 43.429-94 116.571-94 198.857 0 45.714 10 86.857 28 121.143 104-144 260-240 434-251.429-3.998 18.286-5.999 36.571-5.999 54.857 0 132.571 93.999 240 210.001 240 59.998 0 114.001-27.428 154.001-75.428 45.995 11.429 91.994 32 131.994 59.429-16-57.143-48-102.857-91.994-132.572 41.997 4.572 83.994 18.286 120 36.572-28.006-48-64-89.143-104-123.429z" />
<glyph unicode="&#xe925;" glyph-name="vimeo-v-1" d="M953.604 681.146c-4.275-100.571-68.267-235.429-194.138-409.142-130.133-180.574-238.933-272-330.667-272-55.467 0-102.4 54.857-140.8 164.57-74.667 297.143-106.667 468.573-168.533 468.573-8.533 0-32-16-74.667-48l-44.8 61.714c108.8 105.143 213.333 219.429 279.467 226.286 74.667 6.857 121.6-48 138.667-164.571 59.733-413.714 87.467-477.714 198.4-288.001 40.533 66.287 61.867 118.858 66.133 153.144 8.533 105.143-76.8 98.286-136.533 70.857 46.933 164.571 136.533 244.571 268.8 240 98.133-2.286 145.067-70.857 138.671-203.429z" />
<glyph unicode="&#xe926;" glyph-name="Wallet_light" d="M748.988 85.333c-0.772 0-1.545 0-2.321 0h-386.809c-37.824 0-70.413-0.004-96.51 3.507-27.969 3.759-54.778 12.237-76.524 33.984s-30.225 48.555-33.986 76.523c-3.509 26.099-3.507 58.688-3.505 96.512v386.808c0 70.693 57.308 128 128 128h487.62c0.162 0 0.354 0.001 0.563 0.002 1.958 0.006 5.888 0.020 9.647-0.404 29.675-3.343 53.090-26.76 56.435-56.432 0.422-3.763 0.41-7.689 0.401-9.647 0-0.212 0-0.402 0-0.566 0-0.851 0-1.689 0-2.515 0.004-14.534 0.004-25.3-1.075-34.88-2.846-25.268-11.153-48.835-23.714-69.501 14.225-2.848 29.457-8.711 42.462-21.717 15.497-15.497 20.851-34.154 23.053-50.505 1.95-14.503 1.946-32.087 1.941-50.182 0-0.772 0-1.545 0-2.321v-298.667c0-0.772 0-1.549 0-2.321 0.004-18.095 0.009-35.678-1.941-50.18-2.202-16.35-7.556-35.008-23.053-50.505s-34.155-20.851-50.505-23.053c-14.502-1.95-32.085-1.946-50.18-1.941zM643.046 554.667h-365.713c-14.961 0-29.321 2.567-42.667 7.284v-263.284c0-41.434 0.090-68.215 2.744-87.949 2.488-18.505 6.505-24.307 9.753-27.554s9.048-7.266 27.555-9.754c19.734-2.654 46.516-2.743 87.949-2.743h384c21.321 0 33.015 0.090 41.131 1.182 0.107 0.013 0.209 0.030 0.311 0.043 0.013 0.102 0.030 0.205 0.043 0.311 1.092 8.115 1.182 19.81 1.182 41.131h-42.667c-0.777 0-1.549 0-2.321 0-18.095-0.004-35.678-0.009-50.18 1.941-16.35 2.202-35.008 7.556-50.505 23.053s-20.855 34.155-23.053 50.505c-1.95 14.502-1.946 32.085-1.941 50.18 0 0.772 0 1.549 0 2.321 0 0.777 0 1.549 0 2.321-0.004 18.095-0.009 35.678 1.941 50.18 2.197 16.35 7.556 35.008 23.053 50.505s34.155 20.855 50.505 23.053c14.502 1.95 32.085 1.946 50.18 1.941 0.772 0 1.545 0 2.321 0h42.667v42.667c0 21.321-0.090 33.018-1.182 41.132-0.013 0.106-0.030 0.209-0.043 0.311-0.102 0.014-0.205 0.029-0.311 0.043-8.115 1.091-19.81 1.181-41.131 1.181h-96.371c-1.532-0.001-3.11 0-4.732 0-0.828 0-1.664 0-2.517 0zM643.046 640c18.146 0 23.68 0.068 27.84 0.537 39.565 4.457 70.784 35.68 75.243 75.242 0.252 2.223 0.388 4.837 0.461 9.554h-469.257c-23.564 0-42.667-19.102-42.667-42.667s19.102-42.667 42.667-42.667h365.713zM789.333 298.667v85.333h-42.667c-21.321 0-33.015-0.090-41.131-1.182-0.107-0.013-0.209-0.026-0.311-0.043-0.013-0.102-0.030-0.205-0.043-0.311-1.092-8.115-1.182-19.81-1.182-41.131s0.090-33.015 1.182-41.131c0.013-0.107 0.030-0.209 0.043-0.311 0.102-0.013 0.205-0.030 0.311-0.043 8.115-1.092 19.81-1.182 41.131-1.182h42.667z" />
<glyph unicode="&#xe927;" glyph-name="world-1-1" d="M0 477.999h212.772c1.97 75.111 11.154 145.871 26.47 210.001h-176.996c-33.876-63.23-57.818-134.48-62.246-210.001v0zM212.772 418.001h-212.772c4.428-75.52 28.37-146.769 62.246-210.001h176.998c-15.316 64.128-24.502 134.891-26.472 210.001zM482.001 477.999v210.001h-180.723c-16.42-63.552-26.364-134.956-28.538-210.001h209.261zM482.001 748v212c-65.695-18.348-123.887-102.286-162.291-212h162.291zM482.001-64v212.002h-162.291c38.404-109.717 96.596-193.655 162.291-212.002zM541.999 960v-212h162.291c-38.404 109.714-96.597 193.652-162.291 212zM751.262 477.999c-2.176 75.045-12.122 146.449-28.54 210.001h-180.723v-210.001h209.263zM482.001 418.001h-209.261c2.176-75.051 12.118-146.449 28.538-210.001h180.723v210.001zM768.021 747.997h155.499c-62.097 84.946-149.517 156.71-251.366 190.514 39.142-46.208 71.881-115.694 95.868-190.514zM255.978 148.002h-155.5c62.098-84.949 149.52-156.71 251.368-190.515-39.142 46.208-71.88 115.695-95.868 190.515zM255.978 747.997c23.986 74.82 56.726 144.306 95.866 190.514-101.846-33.804-189.268-105.568-251.366-190.514h155.5zM768.021 148.002c-23.987-74.82-56.725-144.307-95.863-190.515 101.845 33.805 189.265 105.566 251.366 190.515h-155.503zM541.999 418.001v-210.001h180.723c16.418 63.552 26.364 134.95 28.54 210.001h-209.263zM784.759 688c15.313-64.13 24.499-134.89 26.47-210.001h212.77c-4.429 75.521-28.369 146.771-62.246 210.001h-176.994zM541.999 148.002v-212.002c65.694 18.347 123.887 102.285 162.291 212.002h-162.291zM1024 418.001h-212.77c-1.971-75.11-11.157-145.873-26.47-210.001h176.998c33.873 63.232 57.813 134.481 62.242 210.001z" />
<glyph unicode="&#xe928;" glyph-name="Admin-1" horiz-adv-x="860" d="M405.268 430.932c-128.455 0-231.582 106.402-231.582 238.935 0 130.666 103.126 238.933 231.582 238.933 126.647 0 231.583-108.267 231.583-238.933 0-132.533-104.935-238.935-231.583-238.935zM495.731 341.332c173.687 0 314.806-145.596 314.806-324.796 0-35.467-28.951-63.468-63.324-63.468h-685.699c-34.375 0-61.514 28-61.514 63.468 0 179.2 139.311 324.796 312.997 324.796h182.734z" />
<glyph unicode="&#xe929;" glyph-name="bitcoin-6-1" d="M512-64c-136.76 0-265.336 53.257-362.040 149.961s-149.96 225.28-149.96 362.039c0 136.76 53.258 265.334 149.96 362.040s225.28 149.96 362.040 149.96c136.759 0 265.335-53.256 362.039-149.96s149.961-225.28 149.961-362.040c0-136.759-53.257-265.335-149.961-362.039-96.7-96.708-225.28-149.961-362.039-149.961zM512 896c-247.028 0-448-200.972-448-448s200.972-448 448-448c247.027 0 448 200.973 448 448s-200.973 448-448 448zM628.527 448c26.628 23.475 43.473 57.796 43.473 96 0 53.608-33.143 99.596-80 118.626v41.374c0 17.672-14.327 32-32 32s-32-14.328-32-32v-32h-64v32c0 17.672-14.327 32-32 32s-32-14.328-32-32v-32h-64c-17.674 0-32-14.328-32-32s14.326-32 32-32h32v-320h-32c-17.674 0-32-14.327-32-32s14.326-32 32-32h64v-32c0-17.673 14.326-32 32-32s32 14.327 32 32v32h64v-32c0-17.673 14.327-32 32-32s32 14.327 32 32v41.374c46.857 19.029 80 65.020 80 118.626 0 38.204-16.845 72.525-43.473 96zM432 608h112c35.29 0 64-28.71 64-64s-28.71-64-64-64h-112v128zM544 288h-112v128h112c35.29 0 64-28.71 64-64s-28.71-64-64-64z" />
<glyph unicode="&#xe92a;" glyph-name="Blub-02" d="M320.826 10.001c0-34.978 28.355-63.334 63.334-63.334h255.678c34.978 0 63.334 28.356 63.334 63.334v173.67c65.557 54.473 107.601 136.542 108.156 228.484 0.994 163.734-131.315 298.881-295.108 301.149v0c-167.238 2.313-303.553-132.582-303.553-299.306 0-92.685 42.166-175.488 108.16-230.327v-173.67zM447.492 73.335v142.263c0 21.508-10.91 41.545-28.979 53.21-47.78 30.848-79.18 84.373-79.18 145.19 0 96.179 78.629 173.987 175.133 172.652 94.153-1.304 170.769-79.494 170.197-173.727v0c-0.367-60.361-31.676-113.446-79.177-144.115-18.069-11.665-28.979-31.701-28.979-53.21v-142.263h-129.015zM512 746.667c34.978 0 63.334 28.355 63.334 63.334v76c0 34.978-28.356 63.334-63.334 63.334s-63.334-28.355-63.334-63.334v-76c0-34.978 28.356-63.334 63.334-63.334zM747.23 649.227c24.734-24.733 64.836-24.733 89.566 0l53.743 53.74c24.734 24.733 24.734 64.834 0 89.567s-64.836 24.733-89.566 0l-53.743-53.74c-24.734-24.733-24.734-64.834 0-89.567zM133.463 35.465c24.733-24.73 64.834-24.73 89.567 0l53.74 53.743c24.733 24.734 24.733 64.832 0 89.566s-64.834 24.734-89.567 0l-53.74-53.739c-24.733-24.734-24.733-64.836 0-89.57zM844.668 413.999c0-34.978 28.356-63.33 63.33-63.33h76.002c34.978 0 63.334 28.352 63.334 63.33s-28.356 63.334-63.334 63.334h-76.002c-34.974 0-63.33-28.356-63.33-63.334zM-23.333 413.999c0-34.978 28.355-63.33 63.333-63.33h76c34.978 0 63.333 28.352 63.333 63.33s-28.355 63.334-63.333 63.334h-76c-34.978 0-63.333-28.356-63.333-63.334zM890.539 35.465c24.734 24.734 24.734 64.836 0 89.57l-53.743 53.739c-24.73 24.734-64.832 24.734-89.566 0s-24.734-64.832 0-89.566l53.743-53.743c24.73-24.73 64.832-24.73 89.566 0zM276.77 649.227c24.733 24.733 24.733 64.834 0 89.567l-53.74 53.74c-24.733 24.733-64.833 24.733-89.567 0s-24.733-64.834 0-89.567l53.74-53.74c24.733-24.733 64.834-24.733 89.567 0zM320.827 128c0-34.978 28.355-63.334 63.333-63.334h255.682c34.978 0 63.33 28.356 63.33 63.334s-28.352 63.334-63.33 63.334h-255.682c-34.978 0-63.333-28.356-63.333-63.334z" />
<glyph unicode="&#xe92b;" glyph-name="Btc_Circle" d="M512.397 960c-282.789 0.238-512.159-228.816-512.397-511.603-0.238-282.79 228.816-512.158 511.603-512.397 282.752 0.239 511.962 229.248 512.397 512 0 282.63-228.975 511.762-511.603 512zM511.603 21.201c-235.709 0-426.797 191.087-426.797 426.799 0 235.71 191.088 426.798 426.797 426.798 235.631-0.238 426.56-191.168 426.799-426.798 0-235.712-191.087-426.799-426.799-426.799zM649.907 472.969c34.24 19.302 52.749 57.937 46.366 96.695-7.923 59.838-79.253 82.428-135.531 87.182v89.956h-55.479v-89.164h-37.248v89.164h-55.481v-89.164h-111.754v-57.462h41.61c18.626 0 27.74-5.548 27.74-20.606v-246.885c0-20.608-10.304-26.948-21.4-26.948h-42.402v-58.65h107.79v-91.149h55.877v91.149h37.248v-91.149h54.293v91.149h11.887c114.129 0 152.175 55.876 152.175 131.959-0.913 44.864-32.021 83.46-75.691 93.922zM468.011 596.61h39.629c27.742 0 82.428-4.756 82.428-49.932 1.903-29.486-19.456-55.32-48.742-59.045h-73.314v108.977zM529.438 311.287v0.393h-61.427v118.886h71.334c16.644 0 79.253-5.547 79.253-49.929 0-44.386-29.717-69.35-89.161-69.35z" />
<glyph unicode="&#xe92c;" glyph-name="bulb" d="M469.333 832.010c0 23.595 19.115 42.667 42.667 42.667s42.667-19.072 42.667-42.667v-85.333c0-23.595-19.115-42.667-42.667-42.667s-42.667 19.072-42.667 42.667v85.333zM327.851 625.845c-8.363-8.661-19.499-13.056-30.677-13.056-10.667 0-21.376 3.968-29.653 11.947l-61.397 59.307c-16.939 16.384-17.408 43.435-1.024 60.331 16.384 16.939 43.349 17.451 60.331 1.067l61.397-59.264c16.939-16.384 17.408-43.435 1.024-60.331zM817.835 684.085l-61.355-59.307c-8.277-7.979-18.987-11.989-29.653-11.989-11.179 0-22.315 4.395-30.677 13.056-16.341 16.896-15.915 43.947 1.067 60.288l61.355 59.264c16.939 16.341 44.075 15.915 60.288-1.024 16.384-16.896 15.915-43.947-1.024-60.288zM213.333 405.342c23.552 0 42.667 19.072 42.667 42.667s-19.115 42.667-42.667 42.667h-85.333c-23.552 0-42.667-19.072-42.667-42.667s19.115-42.667 42.667-42.667h85.333zM938.667 448.009c0-23.595-19.072-42.667-42.667-42.667h-85.333c-23.595 0-42.667 19.072-42.667 42.667s19.072 42.667 42.667 42.667h85.333c23.595 0 42.667-19.072 42.667-42.667zM576.043 337.374c-13.227-7.637-21.376-21.76-21.376-36.992v-193.707h-85.333v193.707c0 15.232-8.149 29.355-21.376 36.992-39.467 22.656-63.957 65.067-63.957 110.635 0 70.571 57.429 128.002 128 128.002s128-57.431 128-128.002c0-45.568-24.491-87.979-63.957-110.635zM298.667 448.009c0 117.634 95.701 213.335 213.333 213.335s213.333-95.701 213.333-213.335c0-67.371-32.171-130.645-85.333-170.496v-170.837c0-47.061-38.272-85.333-85.333-85.333h-85.333c-47.061 0-85.333 38.272-85.333 85.333v170.837c-53.205 39.851-85.333 103.125-85.333 170.496z" />
<glyph unicode="&#xe92d;" glyph-name="Calender-1" horiz-adv-x="866" d="M291.598 849.065v-59.733h233.277v59.733c0 31.733 25.517 59.733 58.321 59.733 30.98 0 58.321-28 58.321-59.733v-59.733h87.477c47.384 0 87.481-41.067 87.481-89.6v-89.6h-816.475v89.6c0 48.533 38.272 89.6 87.479 89.6h87.48v59.733c0 31.733 25.515 59.733 58.32 59.733 30.982 0 58.32-28 58.32-59.733zM0 550.4h816.475v-507.735c0-50.4-40.097-89.6-87.481-89.6h-641.514c-49.207 0-87.479 39.2-87.479 89.6v507.735zM597.776 339.464c18.223 16.801 18.223 44.8 0 63.468-16.404 16.798-43.741 16.798-60.14 0l-173.138-179.204-87.48 89.604c-16.402 16.798-43.739 16.798-60.141 0-18.225-18.668-18.225-46.663 0-63.464l116.639-119.465c16.402-18.672 43.739-18.672 60.141 0l204.119 209.061z" />
<glyph unicode="&#xe92e;" glyph-name="chart-line-up" d="M128 874.667c23.564 0 42.667-19.103 42.667-42.667v-563.2c0-36.548 0.033-61.393 1.602-80.597 1.528-18.705 4.299-28.271 7.699-34.944 8.181-16.055 21.236-29.111 37.292-37.291 6.673-3.401 16.239-6.17 34.945-7.697 19.204-1.57 44.048-1.604 80.596-1.604h563.2c23.565 0 42.667-19.102 42.667-42.667s-19.102-42.667-42.667-42.667h-564.963c-34.345 0-62.691 0-85.782 1.886-23.983 1.958-46.029 6.165-66.736 16.717-32.113 16.363-58.222 42.47-74.584 74.581-10.551 20.71-14.757 42.756-16.716 66.739-1.886 23.091-1.886 51.435-1.885 85.781v564.962c0 23.564 19.103 42.667 42.667 42.667zM682.667 533.333c-23.565 0-42.667 19.103-42.667 42.667s19.102 42.667 42.667 42.667h170.667c23.565 0 42.667-19.103 42.667-42.667v-170.667c0-23.565-19.102-42.667-42.667-42.667s-42.667 19.102-42.667 42.667v67.661l-183.164-183.164c-16.661-16.661-43.678-16.661-60.339 0l-140.497 140.497-140.497-140.497c-16.663-16.661-43.677-16.661-60.34 0s-16.662 43.678 0 60.339l170.667 170.667c16.663 16.663 43.678 16.663 60.34 0l140.497-140.497 152.994 152.994h-67.661z" />
<glyph unicode="&#xe92f;" glyph-name="Check" d="M864 937.417c78.75 0 144-61.412 144-135.53v-677.646c0-76.237-65.25-135.531-144-135.531h-720c-81 0-144 59.294-144 135.531v677.646c0 74.118 63 135.53 144 135.53h720zM762.752 556.241c24.751 23.293 24.751 59.294 0 82.588-24.755 23.294-63.002 23.294-87.753 0l-242.999-228.708-101.25 93.18c-24.75 23.292-63 23.292-87.75 0-24.75-23.296-24.75-59.294 0-82.59l144-135.526c24.75-23.296 63.001-23.296 87.752 0l288 271.057z" />
<glyph unicode="&#xe930;" glyph-name="Chevron_Right_1" horiz-adv-x="1812" d="M987.175-37.037l798.421 800.736c34.958 35.136 34.887 91.988-0.158 127.123-35.052 35.046-91.9 34.973-126.858-0.163l-735.074-737.224-736.957 735.248c-35.048 35.046-91.9 34.973-126.946-0.163-34.957-35.136-34.884-92.078 0.163-127.124l800.473-798.685c34.682-34.517 92.428-34.446 126.937 0.252z" />
</font>
</defs>
</svg>
